Enable / Włącz Javascript
 Widok 
 Kategorie 
 Nitro Torrent w sieci 
 Top 10 użytkowników 
 Better Call Saul S04E06 - Pi?ata [1080p.NF.WEB-DL.H.264.DD5.1] [Lektor PL] [ENG+Napisy PL]

Better Call Saul S04E06 - Pi?ata [1080p.NF.WEB-DL.H.264.DD5.1] [Lektor PL] [ENG+Napisy PL]
Kategoria: » » » »
Dodane: 15/09/2018
Rozmiar: 2.17 GB
Uploader: Lukarusi (1)
seed(ów): 7
leecher(ów): 5
Pobrane: 30
Komentarzy: 0
Pobierz Torrent Pobierz Torrent
Pobierz [Magnet] Pobierz [Magnet]

Obserwuj
Raportuj
Info

produkcja: USA
gatunek: Kryminał, Dramat, Komedia
reżyseria: Vince Gilligan, Adam Bernstein, Michelle MacLaren
scenariusz: Vince Gilligan, Peter Gould
muzyka: Dave Porter
czas trwania: ok. 47 min.

Opis

Akcja "Better Call Saul", prequela "Breaking Bad", rozpoczyna się 6 lat przed tym, jak Saul Goodman poznał Waltera White'a. Głównego bohatera poznajemy jako Jimmy'ego McGilla, początkującego prawnika szukającego przeznaczenia i celu w życiu. Serial przedstawia transformację Jimmy'ego w Saula Goodmana ? osobę, która w przyszłości pomaga White'owi.

Obsada

Bob Odenkirk - Jimmy McGill/Saul Goodman
Jonathan Banks - Mike Ehrmantraut
Rhea Seehorn - Kim Wexler
Patrick Fabian - Howard Hamlin
Michael Mando - Nacho Varga
Michael McKean - Chuck McGill

Dane Techniczne

Format : Matroska
Format version : Version 4 / Version 2
File size : 2.17 GiB
Duration : 47 min 28 s
Overall bit rate : 6 553 kb/s
Encoded date : UTC 2018-09-15 04:57:18

Video
ID : 1
Format : AVC
Format/Info : Advanced Video Codec
Format profile : Main@L4
Format settings : CABAC / 3 Ref Frames
Format settings, CABAC : Yes
Format settings, ReFrames : 3 frames
Codec ID : V_MPEG4/ISO/AVC
Duration : 47 min 28 s
Bit rate : 5 783 kb/s
Width : 1 920 pixels
Height : 1 080 pixels
Display aspect ratio : 16:9
Frame rate mode : Constant
Frame rate : 23.976 (24000/1001) FPS
Color space : YUV
Chroma subsampling : 4:2:0
Bit depth : 8 bits
Scan type : Progressive
Bits/(Pixel*Frame) : 0.116
Stream size : 1.92 GiB (88%)
Default : Yes
Forced : Yes

Audio 1
ID : 2
Format : AC-3
Format/Info : Audio Coding 3
Codec ID : A_AC3
Duration : 47 min 28 s
Bit rate mode : Constant
Bit rate : 384 kb/s
Channel(s) : 6 channels
Channel positions : Front: L C R, Side: L R, LFE
Sampling rate : 48.0 kHz
Frame rate : 31.250 FPS (1536 SPF)
Bit depth : 16 bits
Compression mode : Lossy
Stream size : 130 MiB (6%)
Language : Polish
Service kind : Complete Main
Default : Yes
Forced : Yes

Audio 2
ID : 3
Format : AC-3
Format/Info : Audio Coding 3
Codec ID : A_AC3
Duration : 47 min 28 s
Bit rate mode : Constant
Bit rate : 384 kb/s
Channel(s) : 6 channels
Channel positions : Front: L C R, Side: L R, LFE
Sampling rate : 48.0 kHz
Frame rate : 31.250 FPS (1536 SPF)
Bit depth : 16 bits
Compression mode : Lossy
Stream size : 130 MiB (6%)
Language : English
Service kind : Complete Main
Default : No
Forced : No

Text 1
ID : 4
Format : UTF-8
Codec ID : S_TEXT/UTF8
Codec ID/Info : UTF-8 Plain Text
Duration : 23 min 54 s
Bit rate : 0 b/s
Count of elements : 4
Stream size : 102 Bytes (0%)
Default : Yes
Forced : Yes

Text 2
ID : 5
Format : UTF-8
Codec ID : S_TEXT/UTF8
Codec ID/Info : UTF-8 Plain Text
Duration : 46 min 11 s
Bit rate : 54 b/s
Count of elements : 573
Stream size : 18.5 KiB (0%)
Language : Polish
Default : No
Forced : No
Dostępne napisy
Brak napisów
Szczegóły torrenta
Tracker http://tracker.vanitycore.co:6969/announce
Multitracker [ Pokaż ]
Kategoria: » » » » [Zgłoś błąd]
Dodane 15-09-2018
Podziękowali:
0 użytkowników 
Podziękuj!
Pokaż / Ukryj pliki:
Nazwa pliku Rozmiar
Better Call Saul S04E06 - Piñata [1080p.NF.WEB-DL.H.264.DD5.1] [Lektor PL] [ENG+Napisy PL].mkv 2.17 GB
1 plik
Brak komentarzy...