Enable / Włącz Javascript
 Widok 
 Kategorie 
 Nitro Torrent w sieci 
 Top 10 użytkowników 
 Elementary S06E19 - The Geek Interpreter [720p.iT.WEB-DL.H.264.AC3] [Lektor PL]

Elementary S06E19 - The Geek Interpreter [720p.iT.WEB-DL.H.264.AC3] [Lektor PL]
Kategoria: » » » »
Dodane: 20/09/2018
Rozmiar: 1.32 GB
Uploader: Lukarusi (1)
seed(ów): 40
leecher(ów): 12
Pobrane: 128
Komentarzy: 0
Pobierz Torrent Pobierz Torrent
Pobierz [Magnet] Pobierz [Magnet]

Obserwuj
Raportuj
Info

produkcja: USA
gatunek: Kryminał, Dramat
scenariusz: Peter Blake, Liz Friedman
reżyseria: Michael Cuesta, John David Coles
zdjęcia: Ron Fortunato, Roy H. Wagner
muzyka: Sean Callery, Zoe Keating
czas trwania: ok. 42 min.

Opis

Londyński detektyw Sherlock Holmes wraz ze swoją terapeutką Joan Watson pomagają nowojorskiej policji w rozwiązywaniu najtrudniejszych zagadek kryminalnych.

Obsada

Jonny Lee Miller - Sherlock Holmes
Lucy Liu - Joan Watson
Aidan Quinn - Tobias Gregson
Jon Michael Hill - Marcus Bell

Dane Techniczne

Format : Matroska
Format version : Version 4 / Version 2
File size : 1.32 GiB
Duration : 42 min 19 s
Overall bit rate : 4 465 kb/s
Encoded date : UTC 2018-09-20 15:35:39

Video
ID : 1
Format : AVC
Format/Info : Advanced Video Codec
Format profile : High@L3.1
Format settings : 2 Ref Frames
Format settings, CABAC : No
Format settings, ReFrames : 2 frames
Codec ID : V_MPEG4/ISO/AVC
Duration : 42 min 19 s
Bit rate : 4 079 kb/s
Width : 1 280 pixels
Height : 720 pixels
Display aspect ratio : 16:9
Frame rate mode : Constant
Frame rate : 23.976 (24000/1001) FPS
Color space : YUV
Chroma subsampling : 4:2:0
Bit depth : 8 bits
Scan type : Progressive
Bits/(Pixel*Frame) : 0.185
Stream size : 1.21 GiB (91%)
Color range : Limited
Color primaries : BT.709
Transfer characteristics : BT.709
Matrix coefficients : BT.709

Audio
ID : 2
Format : AC-3
Format/Info : Audio Coding 3
Codec ID : A_AC3
Duration : 42 min 19 s
Bit rate mode : Constant
Bit rate : 384 kb/s
Channel(s) : 2 channels
Channel positions : Front: L R
Sampling rate : 48.0 kHz
Frame rate : 31.250 FPS (1536 SPF)
Bit depth : 16 bits
Compression mode : Lossy
Stream size : 116 MiB (9%)
Language : Polish
Service kind : Complete Main
Dostępne napisy
Brak napisów
Szczegóły torrenta
Tracker http://tracker.vanitycore.co:6969/announce
Multitracker [ Pokaż ]
Kategoria: » » » » [Zgłoś błąd]
Dodane 20-09-2018
Podziękowali:
0 użytkowników 
Podziękuj!
Pokaż / Ukryj pliki:
Nazwa pliku Rozmiar
Elementary S06E19 - The Geek Interpreter [720p.iT.WEB-DL.H.264.AC3] [Lektor PL].mkv 1.32 GB
1 plik
Brak komentarzy...