Enable / Włącz Javascript
 Widok 
 Kategorie 
 Nitro Torrent w sieci 
 Top 10 użytkowników 
 Shooter S03E12-13 [1080p.NF.WEB-DL.H.264.DD5.1] [Lektor PL] [ENG+Napisy PL]

Shooter S03E12-13 [1080p.NF.WEB-DL.H.264.DD5.1] [Lektor PL] [ENG+Napisy PL]
Kategoria: » » » »
Ocena użytkowników
Video 10/10
Audio 10/10
Dodane: 15/09/2018
Rozmiar: 3.29 GB
Uploader: Lukarusi (1)
seed(ów): 27
leecher(ów): 34
Pobrane: 67
Komentarzy: 1
Pobierz Torrent Pobierz Torrent
Pobierz [Magnet] Pobierz [Magnet]

Obserwuj
Raportuj
Info

produkcja: USA
gatunek: Akcja, Dramat
reżyseria: Simon Cellan Jones, Christoph Schrewe, Kevin Bray
scenariusz: John Hlavin, Stephen Hunter, T.J. Brady, Rasheed Newson
muzyka: Bobby Krlic
zdjęcia: Jaime Reynoso, Anthony Hardwick
czas trwania: ok. 42 min.

Opis

Były snajper Marines powraca do służby, aby udaremnić zamach na prezydenta Stanów Zjednoczonych. Wkrótce zostaje oskarżony o morderstwo, którego nie popełnił.

Obsada

Lexy Kolker - Mary Swagger
Ryan Phillippe - Bob Lee Swagger
Shantel VanSanten - Julie Swagger
Cynthia Addai-Robinson - Nadine Memphis
Eddie McClintock - Jack Payne
Omar Epps - Isaac Johnson
Josh Stewart - Solotov
Gina Gallego - Estella
David Marciano - Howard Utey
Tom Sizemore - Hugh Meachum
Patrick Sabongui - Yusuf Ali

Dane Techniczne

Format : Matroska
Format version : Version 4 / Version 2
File size : 1.41 GiB
Duration : 42 min 18 s
Overall bit rate mode : Variable
Overall bit rate : 4 782 kb/s
Encoded date : UTC 2018-09-15 05:13:43

Video
ID : 1
Format : AVC
Format/Info : Advanced Video Codec
Format profile : Main@L4
Format settings : CABAC / 3 Ref Frames
Format settings, CABAC : Yes
Format settings, ReFrames : 3 frames
Codec ID : V_MPEG4/ISO/AVC
Duration : 42 min 18 s
Bit rate mode : Variable
Bit rate : 4 020 kb/s
Maximum bit rate : 6 030 kb/s
Width : 1 920 pixels
Height : 1 080 pixels
Display aspect ratio : 16:9
Frame rate mode : Constant
Frame rate : 23.976 (24000/1001) FPS
Color space : YUV
Chroma subsampling : 4:2:0
Bit depth : 8 bits
Scan type : Progressive
Bits/(Pixel*Frame) : 0.081
Stream size : 1.19 GiB (84%)

Audio 1
ID : 2
Format : AC-3
Format/Info : Audio Coding 3
Codec ID : A_AC3
Duration : 42 min 18 s
Bit rate mode : Constant
Bit rate : 384 kb/s
Channel(s) : 6 channels
Channel positions : Front: L C R, Side: L R, LFE
Sampling rate : 48.0 kHz
Frame rate : 31.250 FPS (1536 SPF)
Bit depth : 16 bits
Compression mode : Lossy
Stream size : 116 MiB (8%)
Language : Polish
Service kind : Complete Main
Default : Yes
Forced : Yes

Audio 2
ID : 3
Format : AC-3
Format/Info : Audio Coding 3
Codec ID : A_AC3
Duration : 42 min 18 s
Bit rate mode : Constant
Bit rate : 384 kb/s
Channel(s) : 6 channels
Channel positions : Front: L C R, Side: L R, LFE
Sampling rate : 48.0 kHz
Frame rate : 31.250 FPS (1536 SPF)
Bit depth : 16 bits
Compression mode : Lossy
Stream size : 116 MiB (8%)
Language : English
Service kind : Complete Main
Default : No
Forced : No

Text
ID : 4
Format : UTF-8
Codec ID : S_TEXT/UTF8
Codec ID/Info : UTF-8 Plain Text
Duration : 41 min 40 s
Bit rate : 59 b/s
Count of elements : 583
Stream size : 18.3 KiB (0%)
Language : Polish
Default : No
Forced : No
Dostępne napisy
Brak napisów
Szczegóły torrenta
Tracker http://tracker.vanitycore.co:6969/announce
Multitracker [ Pokaż ]
Kategoria: » » » » [Zgłoś błąd]
Dodane 15-09-2018
Podziękowali:
1 użytkownik 
[ Pokaż ]
Podziękuj!
Pokaż / Ukryj pliki:
Nazwa pliku Rozmiar
Shooter S03E12 - Patron Saint [1080p.NF.WEB-DL.H.264.DD5.1] [Lektor PL] [ENG+Napisy PL].mkv 1.41 GB
Shooter S03E13 - Red Light [1080p.NF.WEB-DL.H.264.DD5.1] [Lektor PL] [ENG+Napisy PL].mkv 1.88 GB
2 plików

<< Poprz.      Następna >>
1 - 1

samsung88 (1)
18/09/2018 15:37:06
AUDIO 10
VIDEO 10

1 - 1
<< Poprz.      Następna >>