Enable / Włącz Javascript
 Widok 
 Kategorie 
 Nitro Torrent w sieci 
 Top 10 użytkowników 
 Snowfall S02E07 - The World Is Yours [720p.AMZN.WEB-DL.H.264.AC3] [Lektor PL]

Snowfall S02E07 - The World Is Yours [720p.AMZN.WEB-DL.H.264.AC3] [Lektor PL]
Kategoria: » » » »
Dodane: 04/09/2018
Rozmiar: 1.06 GB
Uploader: Lukarusi (1)
seed(ów): 9
leecher(ów): 2
Pobrane: 70
Komentarzy: 0
Pobierz Torrent Pobierz Torrent
Pobierz [Magnet] Pobierz [Magnet]

Obserwuj
Raportuj
Info

produkcja: USA
gatunek: Kryminał, Dramat
reżyseria: Adil El Arbi, Bilall Fallah, John Singleton
scenariusz: Dave Andron, Eric Amadio, John Singleton
muzyka: Jeff Russo
zdjęcia: Jeffrey Greeley, Robrecht Heyvaert
czas trwania: ok. 43 min.

Opis

Akcja produkcji rozgrywa się w latach 80. w Los Angeles i opowiada o kokainowej epidemii, która nastąpiła po aferze Iran-Contras. Historia przedstawiona z perspektywy młodego, czarnoskórego chłopca z Compton, meksykańskiego wrestlera i agenta CIA oskarżonego o współpracę z rebeliantami z Contras.

Obsada

Damson Idris - Franklin Saint
Carter Hudson - Teddy McDonald
Emily Rios - Lucia Villanueva
Sergio Peris-Mencheta - Gustavo "El Oso" Zapata
Juan Javier Cardenas - Alejandro Usteves
Isaiah John - Leon Simmons
Filipe Valle Costa - Pedro Nava
Amin Joseph - Jerome Saint
Michael Hyatt - Cissy Saint
Angela Lewis - Aunt Louie
Malcolm M. Mays - Kevin Hamilton
José Zú?iga - Ramiro
Craig Tate - Lenny
Peta Sergeant - Jules
Alon Aboutboul - Avi Drexler

Dane Techniczne

Format : Matroska
Format version : Version 4 / Version 2
File size : 1.06 GiB
Duration : 43 min 20 s
Overall bit rate mode : Variable
Overall bit rate : 3 505 kb/s
Encoded date : UTC 2018-09-04 16:58:12

Video
ID : 1
Format : AVC
Format/Info : Advanced Video Codec
Format profile : High@L3.1
Format settings : CABAC / 5 Ref Frames
Format settings, CABAC : Yes
Format settings, ReFrames : 5 frames
Codec ID : V_MPEG4/ISO/AVC
Duration : 43 min 20 s
Bit rate mode : Variable
Bit rate : 3 119 kb/s
Maximum bit rate : 4 500 kb/s
Width : 1 280 pixels
Height : 720 pixels
Display aspect ratio : 16:9
Frame rate mode : Constant
Frame rate : 23.976 (24000/1001) FPS
Color space : YUV
Chroma subsampling : 4:2:0
Bit depth : 8 bits
Scan type : Progressive
Bits/(Pixel*Frame) : 0.141
Stream size : 967 MiB (89%)
Color range : Limited
Color primaries : BT.709
Transfer characteristics : BT.709
Matrix coefficients : BT.709

Audio
ID : 2
Format : AC-3
Format/Info : Audio Coding 3
Codec ID : A_AC3
Duration : 43 min 20 s
Bit rate mode : Constant
Bit rate : 384 kb/s
Channel(s) : 2 channels
Channel positions : Front: L R
Sampling rate : 48.0 kHz
Frame rate : 31.250 FPS (1536 SPF)
Bit depth : 16 bits
Compression mode : Lossy
Stream size : 119 MiB (11%)
Language : Polish
Service kind : Complete Main
Dostępne napisy
Brak napisów
Szczegóły torrenta
Tracker http://tracker.vanitycore.co:6969/announce
Multitracker [ Pokaż ]
Kategoria: » » » » [Zgłoś błąd]
Dodane 04-09-2018
Podziękowali:
0 użytkowników 
Podziękuj!
Pokaż / Ukryj pliki:
Nazwa pliku Rozmiar
Snowfall S02E07 - The World Is Yours [720p.AMZN.WEB-DL.H.264.AC3] [Lektor PL].mkv 1.06 GB
1 plik
Brak komentarzy...